Pirates of the Caribbean Dead Men Tell No Tales 2017 1080p Bluray...

  • Category Movies
  • Type HEVC/x265
  • Language English
  • Total size 3.8 GB
  • Uploaded By GetSchwifty
  • Downloads 54
  • Last checked 4 days ago
  • Date uploaded 1 week ago
  • Seeders 18
  • Leechers 7

Pirates of the Caribbean: Dead Men ...

ActionAdventureComedyFantasy

Captain Jack Sparrow is pursued by an old rival, Captain Salazar, who along with his crew of ghost pirates has escaped from the Devil's Triangle, and is determined to kill every pirate at sea. Jack seeks the Trident of Poseidon, a powerful artifact that grants its possessor total control over the seas, in order to defeat Salazar.

Infohash : 0199B451319506F23BA24DC0D8F1B6362DF586DC

Source File:

Pirates of the Caribbean: Dead Men Tell No Tales 2017 1080p BluRay REMUX AVC DTS-HD MA 7.1-EPSiLON






Media Information:


Code:

General
Unique ID : 219574332475782008046362490991068471073 (0xA5307A6AE1DF84E6AE29C3E513E25F21)
Complete name : G:\Seeding\Pirates of the Caribbean Dead Men Tell No Tales 2017 1080p Bluray x265 10Bit AAC 7.1 - GetSchwifty\Pirates of the Caribbean Dead Men Tell No Tales 2017 1080p Bluray x265 10Bit AAC 7.1 - GetSchwifty.mkv
Format : Matroska
Format version : Version 4 / Version 2
File size : 3.77 GiB
Duration : 2 h 9 min
Overall bit rate : 4 178 kb/s
Movie name : Pirates of the Caribbean: Dead Men Tell No Tales
Encoded date : UTC 2017-09-14 01:44:30
Writing application : mkvmerge v14.0.0 ('Flow') 64bit
Writing library : libebml v1.3.4 + libmatroska v1.4.5

Video
ID : 1
Format : HEVC
Format/Info : High Efficiency Video Coding
Format profile : Main [email protected]@Main
Codec ID : V_MPEGH/ISO/HEVC
Duration : 2 h 9 min
Bit rate : 3 578 kb/s
Width : 1 920 pixels
Height : 800 pixels
Display aspect ratio : 2.40:1
Frame rate mode : Constant
Frame rate : 23.976 (24000/1001) FPS
Color space : YUV
Chroma subsampling : 4:2:0
Bit depth : 10 bits
Bits/(Pixel*Frame) : 0.097
Stream size : 3.23 GiB (86%)
Writing library : x265 2.5+6-d11482e5fedb:[Windows][GCC 6.2.1][64 bit] 10bit
Encoding settings : cpuid=1050111 / frame-threads=3 / numa-pools=8 / wpp / no-pmode / no-pme / no-psnr / no-ssim / log-level=2 / input-csp=1 / input-res=1920x800 / interlace=0 / total-frames=185748 / level-idc=0 / high-tier=1 / uhd-bd=0 / ref=5 / no-allow-non-conformance / no-repeat-headers / annexb / no-aud / no-hrd / info / hash=0 / no-temporal-layers / open-gop / min-keyint=23 / keyint=250 / bframes=8 / b-adapt=2 / b-pyramid / bframe-bias=0 / rc-lookahead=80 / lookahead-slices=5 / scenecut=40 / no-intra-refresh / ctu=64 / min-cu-size=8 / no-rect / no-amp / max-tu-size=32 / tu-inter-depth=1 / tu-intra-depth=1 / limit-tu=0 / rdoq-level=0 / dynamic-rd=0.00 / no-ssim-rd / signhide / no-tskip / nr-intra=0 / nr-inter=0 / no-constrained-intra / strong-intra-smoothing / max-merge=3 / limit-refs=3 / limit-modes / me=3 / subme=5 / merange=57 / temporal-mvp / weightp / weightb / no-analyze-src-pics / deblock=0:0 / sao / no-sao-non-deblock / rd=3 / no-early-skip / rskip / no-fast-intra / no-tskip-fast / no-cu-lossless / no-b-intra / rdpenalty=0 / psy-rd=0.30 / psy-rdoq=0.00 / no-rd-refine / analysis-reuse-mode=0 / no-lossless / cbqpoffs=0 / crqpoffs=0 / rc=abr / bitrate=3578 / qcomp=0.60 / qpstep=4 / stats-write=0 / stats-read=2 / cplxblur=20.0 / qblur=0.5 / ipratio=1.40 / pbratio=1.30 / aq-mode=3 / aq-strength=1.00 / cutree / zone-count=0 / no-strict-cbr / qg-size=32 / no-rc-grain / qpmax=69 / qpmin=0 / no-const-vbv / sar=0 / overscan=0 / videoformat=5 / range=0 / colorprim=2 / transfer=2 / colormatrix=2 / chromaloc=0 / display-window=0 / max-cll=0,0 / min-luma=0 / max-luma=1023 / log2-max-poc-lsb=8 / vui-timing-info / vui-hrd-info / slices=1 / opt-qp-pps / opt-ref-list-length-pps / no-multi-pass-opt-rps / scenecut-bias=0.05 / no-opt-cu-delta-qp / aq-motion / no-hdr / no-hdr-opt / no-dhdr10-opt / analysis-reuse-level=5 / scale-factor=0 / refine-intra=0 / refine-inter=0 / refine-mv=0 / no-limit-sao / ctu-info=0
Default : Yes
Forced : No

Audio
ID : 2
Format : AAC
Format/Info : Advanced Audio Codec
Format profile : LC
Codec ID : A_AAC
Duration : 2 h 9 min
Bit rate : 543 kb/s
Channel(s) : 7 channels
Channel(s)_Original : 8 channels
Channel positions : Front: L C R, Side: L R, Back: L R, LFE
Sampling rate : 48.0 kHz
Frame rate : 46.875 FPS (1024 SPF)
Compression mode : Lossy
Delay relative to video : 9 ms
Stream size : 502 MiB (13%)
Title : English AAC VBR 7.1
Language : English
Default : Yes
Forced : No

Text #1
ID : 3
Format : PGS
Muxing mode : zlib
Codec ID : S_HDMV/PGS
Codec ID/Info : Picture based subtitle format used on BDs/HD-DVDs
Duration : 2 h 7 min
Bit rate : 33.1 kb/s
Count of elements : 3544
Stream size : 30.3 MiB (1%)
Title : SDH
Language : English
Default : No
Forced : No

Text #2
ID : 4
Format : PGS
Muxing mode : zlib
Codec ID : S_HDMV/PGS
Codec ID/Info : Picture based subtitle format used on BDs/HD-DVDs
Duration : 1 h 59 min
Bit rate : 19.0 kb/s
Count of elements : 2738
Stream size : 16.2 MiB (0%)
Title : Mandarin Simplified
Language : Chinese
Default : No
Forced : No

Text #3
ID : 5
Format : PGS
Muxing mode : zlib
Codec ID : S_HDMV/PGS
Codec ID/Info : Picture based subtitle format used on BDs/HD-DVDs
Duration : 1 h 59 min
Bit rate : 22.1 kb/s
Count of elements : 2988
Stream size : 19.0 MiB (0%)
Title : Cantonese
Language : Chinese
Default : No
Forced : No

Text #4
ID : 6
Format : PGS
Muxing mode : zlib
Codec ID : S_HDMV/PGS
Codec ID/Info : Picture based subtitle format used on BDs/HD-DVDs
Duration : 1 h 59 min
Bit rate : 16.2 kb/s
Count of elements : 2646
Stream size : 13.9 MiB (0%)
Title : Mandarin Traditional
Language : Chinese
Default : No
Forced : No

Text #5
ID : 7
Format : PGS
Muxing mode : zlib
Codec ID : S_HDMV/PGS
Codec ID/Info : Picture based subtitle format used on BDs/HD-DVDs
Duration : 1 h 59 min
Bit rate : 15.1 kb/s
Count of elements : 2634
Stream size : 12.9 MiB (0%)
Language : Korean
Default : No
Forced : No

Text #6
ID : 8
Format : PGS
Muxing mode : zlib
Codec ID : S_HDMV/PGS
Codec ID/Info : Picture based subtitle format used on BDs/HD-DVDs
Duration : 1 h 59 min
Bit rate : 27.3 kb/s
Count of elements : 2638
Stream size : 23.2 MiB (1%)
Language : Russian
Default : No
Forced : No

Menu
00:00:00.000 : en:Father's Curse
00:05:49.516 : en:"Arrest Him"
00:08:34.222 : en:Captain Salazar
00:13:40.820 : en:"Stop That Witch"
00:16:29.155 : en:Runaway Bank
00:22:33.852 : en:Bad Luck
00:25:19.268 : en:"Hidden In The Stars"
00:28:06.101 : en:"We Are Free"
00:31:41.775 : en:Blood Moon
00:33:44.814 : en:"Looking For A Pirate"
00:37:02.053 : en:Barbossa's Treasure
00:42:27.712 : en:"Final Words"
00:49:09.071 : en:"Cordiality"
00:54:00.279 : en:Bluffing
00:57:19.394 : en:"Closer Than You Think"
01:00:38.718 : en:Salazar's Story
01:08:29.939 : en:Mutiny
01:11:57.021 : en:Ghost Sharks
01:16:50.940 : en:"Unscratchable Itch"
01:19:27.471 : en:Wedding Day
01:25:04.808 : en:"Just Believe Her"
01:27:42.174 : en:"So You're An Orphan"
01:31:43.790 : en:"Nowhere To Hide"
01:38:22.814 : en:The Island
01:42:36.776 : en:Poseidon's Trident
01:47:23.562 : en:"All Must Divide"
01:52:58.689 : en:"Let Me Tell You A Tale"
01:59:09.934 : en:Credits

Files:

  • Pirates of the Caribbean Dead Men Tell No Tales 2017 1080p Bluray x265 10Bit AAC 7.1 - GetSchwifty.mkv (3.8 GB)

Comments

Code:

  • udp://tracker.coppersurfer.tk:6969/announce
  • udp://tracker.opentrackr.org:1337/announce
  • udp://tracker.torrent.eu.org:451/announce
  • http://tracker.tfile.me:80/announce
  • http://t.nyaatracker.com:80/announce
  • http://retracker.mgts.by:80/announce
  • http://tracker.yoshi210.com:6969/announce