Shinjuku Incident (2009) 1080p x264 [Hindi Org DD 5.1 448Kbps] [D...

  • Category Movies
  • Type HD
  • Language Hindi
  • Total size 2.0 GB
  • Uploaded By DesiZombies
  • Downloads 479
  • Last checked 5 days ago
  • Date uploaded 1 week ago
  • Seeders 14
  • Leechers 6

Shinjuku Incident

ActionCrimeDramaThriller

Iron Zhao aka Steelhead, a truck repairman from China's Northeast, and settles down as an illegal immigrant in Tokyo. After a series of run-ins with the Yakuza, he rises to power as the Don of Chinese illegal immigrants. However, things get out of control when he's foolish enough to believe in clean getaways in a world that offers none, and soon comes to seal his own fate.

Infohash : D28D1A1230F7D56D51F39337EBB3ABFD840BC184





Shinjuku Incident (2009) 1080p x264 [Hindi Org DD 5.1 448Kbps] [Dzrg Torrents®].mkv


General
Format : Matroska
Format version : Version 4 / Version 2
File size : 2.04 GiB
Duration : 1 h 59 min
Overall bit rate : 2 449 kb/s
Encoded date : UTC 2017-09-14 03:50:42
Writing application : mkvmerge v10.0.0 ('To Drown In You') 64bit
Writing library : libebml v1.3.4 + libmatroska v1.4.5




Video
ID : 1
Format : AVC
Format/Info : Advanced Video Codec
Format profile : [email protected]
Format settings, CABAC : Yes
Format settings, ReFrames : 5 frames
Codec ID : V_MPEG4/ISO/AVC
Duration : 1 h 59 min
Bit rate : 2 000 kb/s
Width : 1 920 pixels
Height : 814 pixels
Display aspect ratio : 2.35:1
Frame rate mode : Constant
Frame rate : 24.000 FPS
Color space : YUV
Chroma subsampling : 4:2:0
Bit depth : 8 bits
Scan type : Progressive
Bits/(Pixel*Frame) : 0.053
Stream size : 1.67 GiB (82%)
Title : Shinjuku Incident (2009) 1080p x264 [Dzrg Torrents®]
Writing library : x264 core 148 r2638 7599210
Language : English
Default : Yes
Forced : No






Audio
ID : 2
Format : AC-3
Format/Info : Audio Coding 3
Mode extension : CM (complete main)
Format settings, Endianness : Big
Codec ID : A_AC3
Duration : 1 h 59 min
Bit rate mode : Constant
Bit rate : 448 kb/s
Channel(s) : 6 channels
Channel positions : Front: L C R, Side: L R, LFE
Sampling rate : 48.0 kHz
Frame rate : 31.250 FPS (1536 spf)
Bit depth : 16 bits
Compression mode : Lossy
Stream size : 382 MiB (18%)
Title : [Hindi Org DD 5.1 448Kbps] [Dzrg Torrents®]
Language : Hindi
Default : Yes
Forced : No



Text
ID : 3
Format : UTF-8
Codec ID : S_TEXT/UTF8
Codec ID/Info : UTF-8 Plain Text
Duration : 1 h 54 min
Bit rate : 45 b/s
Count of elements : 1597
Stream size : 37.9 KiB (0%)
Title : English SRT
Language : English
Default : Yes
Forced : No










Files:

  • Shinjuku Incident (2009) 1080p x264 [Hindi Org DD 5.1 448Kbps] [Dzrg Torrents®].mkv (2.0 GB)

Comments

Code:

  • udp://9.rarbg.com:2790/announce
  • udp://eddie4.nl:6969/announce
  • udp://tracker.coppersurfer.tk:6969
  • udp://tracker.leechers-paradise.org:6969
  • udp://9.rarbg.me:2750/announce
  • udp://tracker.internetwarriors.net:1337
  • udp://inferno.demonoid.pw:3397/announce
  • udp://tracker.coppersurfer.tk:6969/announce
  • udp://tracker.piratepublic.com:1337/announce
  • udp://tracker.internetwarriors.net:1337/announce
  • http://tracker2.wasabii.com.tw:6969/announce
  • udp://inferno.demonoid.ooo:3389/announce
  • udp://public.popcorn-tracker.org:6969/announce
  • udp://tracker.pirateparty.gr:6969/announce