Churchill.2017.720p.BRRip.x264.AC3-iFT

  • Category Movies
  • Type HD
  • Language English
  • Total size 3.0 GB
  • Uploaded By showstopper
  • Downloads 12
  • Last checked 5 days ago
  • Date uploaded 1 week ago
  • Seeders 3
  • Leechers 2

Churchill

DramaThrillerWar

A ticking-clock thriller following Winston Churchill in the 24 hours before D-Day.

Infohash : 97AE02A6770EBF00DAD0FAC15FC5FFD71E27C412

Churchill.2017.720p.BRRip.x264.AC3-iFT

ImDb: http://www.imdb.com/title/tt2674454



Complete name : Churchill.2017.720p.BRRip.x264.AC3-iFT.mkv
Format : Matroska
Format version : Version 4 / Version 2
File size : 2.96 GiB
Duration : 1 h 45 min
Overall bit rate : 4 029 kb/s
Movie name : Churchill.2017.720p.BRRip.x264.AC3-iFT
Encoded date : UTC 2017-09-14 04:14:29
Writing application : mkvmerge v8.9.0 ('Father Daughter') 64bit
Writing library : libebml v1.3.3 + libmatroska v1.4.4

Video
ID : 1
Format : AVC
Format/Info : Advanced Video Codec
Format profile : [email protected]
Format settings, CABAC : Yes
Format settings, ReFrames : 12 frames
Codec ID : V_MPEG4/ISO/AVC
Duration : 1 h 45 min
Bit rate : 3 580 kb/s
Width : 1 272 pixels
Height : 532 pixels
Display aspect ratio : 2.40:1
Frame rate mode : Constant
Frame rate : 24.000 FPS
Color space : YUV
Chroma subsampling : 4:2:0
Bit depth : 8 bits
Scan type : Progressive
Bits/(Pixel*Frame) : 0.220
Stream size : 2.63 GiB (89%)
Title : Churchill.2017.720p.BRRip.x264.AC3-iFT
Writing library : x264 core 142 r2431+42 c69a006 tMod [[email protected] X86_64]
Encoding settings : cabac=1 / ref=12 / deblock=1:-3:-3 / analyse=0x3:0x133 / me=umh / subme=8 / psy=1 / fade_compensate=0.00 / psy_rd=1.00:0.15 / mixed_ref=1 / me_range=48 / chroma_me=1 / trellis=2 / 8x8dct=1 / cqm=0 / deadzone=21,11 / fast_pskip=1 / chroma_qp_offset=-3 / threads=16 / lookahead_threads=4 / sliced_threads=0 / nr=0 / decimate=1 / interlaced=0 / bluray_compat=0 / constrained_intra=0 / fgo=0 / bframes=7 / b_pyramid=2 / b_adapt=2 / b_bias=0 / direct=3 / weightb=1 / open_gop=0 / weightp=2 / keyint=240 / keyint_min=24 / scenecut=40 / intra_refresh=0 / rc_lookahead=60 / rc=2pass / mbtree=1 / bitrate=3580 / ratetol=1.0 / qcomp=0.60 / qpmin=0:0:0 / qpmax=69:69:69 / qpstep=4 / cplxblur=20.0 / qblur=0.5 / vbv_maxrate=50000 / vbv_bufsize=62500 / nal_hrd=none / filler=0 / ip_ratio=1.40 / aq=1:1.00 / aq-sensitivity=10.00 / aq-factor=1.00:1.00:1.00 / aq2=0 / aq3=0
Default : Yes
Forced : No
Color range : Limited
Color primaries : BT.709
Transfer characteristics : BT.709
Matrix coefficients : BT.709

Audio
ID : 2
Format : AC-3
Format/Info : Audio Coding 3
Format settings, Endianness : Big
Codec ID : A_AC3
Duration : 1 h 45 min
Bit rate mode : Constant
Bit rate : 448 kb/s
Channel(s) : 6 channels
Channel positions : Front: L C R, Side: L R, LFE
Sampling rate : 48.0 kHz
Frame rate : 31.250 FPS (1536 spf)
Bit depth : 16 bits
Compression mode : Lossy
Stream size : 337 MiB (11%)
Language : English
Service kind : Complete Main
Default : Yes
Forced : No

Menu
00:00:00.000 : en:00:00:00.000
00:14:19.917 : en:00:14:19.917
00:25:07.292 : en:00:25:07.292
00:38:27.250 : en:00:38:27.250
00:51:50.333 : en:00:51:50.333
01:07:13.375 : en:01:07:13.375
01:20:10.917 : en:01:20:10.917
01:33:50.125 : en:01:33:50.125






Click To View Screenshot

Click To View Screenshot

Click To View Screenshot

Files:

Churchill.2017.720p.BRRip.x264.AC3-iFT
  • Churchill.2017.720p.BRRip.x264.AC3-iFT.mkv (3.0 GB)
  • NFO-iFT.nfo (0.6 KB)
  • Sample
    • Sample.mkv (35.8 MB)

There are currently no comments. Feel free to leave one :)

Code:

  • udp://tracker.coppersurfer.tk:6969/announce
  • udp://tracker.pirateparty.gr:6969/announce
  • udp://shadowshq.yi.org:6969/announce
  • udp://eddie4.nl:6969/announce
  • udp://tracker.leechers-paradise.org:6969/announce
  • udp://tracker.opentrackr.org:1337/announce
  • udp://p4p.arenabg.ch:1337/announce
  • udp://p4p.arenabg.com:1337/announce
  • udp://9.rarbg.me:2710/announce
  • udp://9.rarbg.to:2710/announce
  • udp://ipv4.tracker.harry.lu:80/announce
  • udp://tracker.grepler.com:6969/announce
  • udp://public.popcorn-tracker.org:6969/announce
  • udp://tracker.opentrackr.org:1337/announce
  • udp://tracker.zer0day.to:1337/announce