Salvation S01E12 The Wormwood Prophecy 1080p DD5.1 - 2.0 x264 Phu...

  • Category TV
  • Type HD
  • Language English
  • Total size 536.3 MB
  • Uploaded By PhunPsyz
  • Downloads 64
  • Last checked 1 day ago
  • Date uploaded 5 days ago
  • Seeders 12
  • Leechers 4

Infohash : 28741C5FCD38927F2864F4190287267230C968E8

x265 Size, x264 Compatibility, HD Quality

http://www.imdb.com/title/tt7133982/?ref_=ttep_ep12

Description: N/A

Source: DIMENSION (3.56 GiB)











Format : MPEG-4
Format profile : Base Media / Version 2
Codec ID : mp42 (isom/iso2/avc1/mp41)
File size : 536 MiB
Duration : 43 min 35 s
Overall bit rate mode : Variable
Overall bit rate : 1 720 kb/s
Writing application : HandBrake 1.0.7 2017040900

Video
ID : 1
Format : AVC
Format/Info : Advanced Video Codec
Format profile : [email protected]
Format settings, CABAC : Yes
Format settings, ReFrames : 8 frames
Codec ID : avc1
Codec ID/Info : Advanced Video Coding
Duration : 43 min 35 s
Bit rate : 1 235 kb/s
Width : 1 920 pixels
Height : 1 080 pixels
Display aspect ratio : 16:9
Frame rate mode : Variable
Frame rate : 23.976 (24000/1001) FPS
Minimum frame rate : 23.974 FPS
Maximum frame rate : 23.981 FPS
Color space : YUV
Chroma subsampling : 4:2:0
Bit depth : 8 bits
Scan type : Progressive
Bits/(Pixel*Frame) : 0.025
Stream size : 385 MiB (72%)
Writing library : x264 core 148 r2708 86b7198
Color range : Limited
Color primaries : BT.709
Transfer characteristics : BT.709
Matrix coefficients : BT.709

Audio #1
ID : 2
Format : AAC
Format/Info : Advanced Audio Codec
Format profile : LC
Codec ID : 40
Duration : 43 min 35 s
Bit rate mode : Variable
Bit rate : 317 kb/s
Channel(s) : 2 channels
Channel(s)_Original : 6 channels
Channel positions : Front: L C R, Side: L R, LFE
Sampling rate : 48.0 kHz
Frame rate : 46.875 FPS (1024 spf)
Compression mode : Lossy
Stream size : 98.7 MiB (18%)
Title : Surround / Surround
Default : Yes
Alternate group : 1

Audio #2
ID : 3
Format : AAC
Format/Info : Advanced Audio Codec
Format profile : LC
Codec ID : 40
Duration : 43 min 35 s
Bit rate mode : Variable
Bit rate : 159 kb/s
Channel(s) : 2 channels
Channel positions : Front: L R
Sampling rate : 48.0 kHz
Frame rate : 46.875 FPS (1024 spf)
Compression mode : Lossy
Stream size : 49.4 MiB (9%)
Title : Stereo / Stereo
Default : No
Alternate group : 1

Files:

  • Salvation S01E12 The Wormwood Prophecy 1080p DD5.1 - 2.0 x264 Phun Psyz.mp4 (536.3 MB)

There are currently no comments. Feel free to leave one :)

Code:

  • udp://tracker.coppersurfer.tk:6969/announce
  • udp://tracker.pirateparty.gr:6969/announce
  • udp://shadowshq.yi.org:6969/announce
  • udp://tracker.tiny-vps.com:6969/announce
  • udp://inferno.demonoid.pw:3397/announce
  • udp://tracker.opentrackr.org:1337/announce
  • http://mgtracker.org:6969/announce
  • udp://tracker.leechers-paradise.org:6969/announce
  • udp://eddie4.nl:6969/announce
  • udp://tracker.piratepublic.com:1337/announce
  • udp://tracker.grepler.com:6969/announce
  • http://explodie.org:6969/announce