Yoga Hosers - Guerriere per sbaglio (2016).H264.Italian.English.A...

  • Category Movies
  • Type h.264/x264
  • Language English
  • Total size 1.0 GB
  • Uploaded By robbyrs
  • Downloads 210
  • Last checked 4 days ago
  • Date uploaded 1 week ago
  • Seeders 103
  • Leechers 16

Infohash : 58540CE35155D857ED907A0E54D280C1F1AC75AC

Yoga Hosers - Guerriere per sbaglio (2016).H264.Italian.English.Ac3.5.1.sub.ita.eng.iCV-MIRCrew




NO FOUND ONLY ORIGINAL RELEASE





My release is always in double track audio italian and Original audio
for select it use VLC or dvd player home
not use wmp

Yoga Hosers - Guerriere per sbaglio (2016)







Titolo originale Yoga Hosers
Lingua originale inglese
Paese di produzione Stati Uniti d'America
Anno 2016
Durata 88 min
Genere commedia, thriller, orrore, grottesco
Regia Kevin Smith
Sceneggiatura Kevin Smith
Produttore Elizabeth Destro, Jordan Monsanto, Jennifer Schwalbach
Casa di produzione Invincible Pictures, SModcast Pictures, XYZ Films
Fotografia James Laxton
Montaggio Kevin Smith
Musiche Christopher Drake
Scenografia Cabot McMullen




Harley Quinn Smith: Colleen McKenzie
Lily-Rose Depp: Colleen Collette
Johnny Depp: Guy Lapointe
Justin Long: Yogi Bayer
Haley Joel Osment: Adrien Arcand
Génesis Rodríguez: Ms. Wicklund
Ralph Garman: Old Man Arcane
Harley Morenstein: Toilet Paper Man
Tony Hale: Bob Collette
Natasha Lyonne: Tabitha
Austin Butler: Hunter Calloway
Adam Brody: Ichabod
Tyler Posey: Gordon Greenleaf
Jason Mewes: Rogue Cop
Kevin Smith: Bratzi
Vanessa Paradis: insegnate di storia




Due quindicenni lavorano dopo la scuola come commesse in un negozio di Manitoba, chiamato Eh-2-Zed. Quando un antico male fuoriesce dal sottosuolo, rilasciando un esercito di piccoli mostri chiamati i Bratzis (piccoli nazisti fatti di salsiccia), le due ragazze uniranno le forze con il cacciatore Guy Lapointe per salvare il "Grande Nord".



Two teenage yoga enthusiasts team up with a legendary man-hunter to battle with an ancient evil presence that is threatening their major party plans.








[spoiler]
General
Unique ID : 55871086492666414999075571844347509048 (0x2A08613DDC4EFEE7EC37E8ABA156B938)
Complete name : Yoga Hosers - Guerriere per sbaglio (2016).H264.ita.eng.sub.ita.eng.iCV-MIRCrew.mkv
Format : Matroska
Format version : Version 2
File size : 1.02 GiB
Duration : 1h 27mn
Overall bit rate : 1 663 Kbps
Movie name : icv-crew
Encoded date : UTC 2017-08-28 21:32:16
Writing application : Lavf54.63.100
Writing library : Lavf54.63.100
COPYRIGHT : robbyrs
DATE : 2017

Video
ID : 1
Format : AVC
Format/Info : Advanced Video Codec
Format profile : [email protected]
Format settings, CABAC : Yes
Format settings, ReFrames : 2 frames
Codec ID : V_MPEG4/ISO/AVC
Duration : 1h 27mn
Bit rate : 1 290 Kbps
Width : 688 pixels
Height : 288 pixels
Display aspect ratio : 2.40:1
Frame rate mode : Variable
Frame rate : 23.976 fps
Color space : YUV
Chroma subsampling : 4:2:0
Bit depth : 8 bits
Scan type : Progressive
Bits/(Pixel*Frame) : 0.272
Stream size : 781 MiB (75%)
Writing library : x264 core 130 r2273
Encoding settings : cabac=1 / ref=2 / deblock=1:0:0 / analyse=0x1:0x131 / me=hex / subme=7 / psy=1 / psy_rd=1.00:0.00 / mixed_ref=0 / me_range=16 / chroma_me=1 / trellis=1 / 8x8dct=0 / cqm=0 / deadzone=21,11 / fast_pskip=1 / chroma_qp_offset=-2 / threads=12 / lookahead_threads=2 / sliced_threads=0 / nr=0 / decimate=1 / interlaced=0 / bluray_compat=0 / constrained_intra=0 / bframes=3 / b_pyramid=0 / b_adapt=1 / b_bias=0 / direct=3 / weightb=1 / open_gop=0 / weightp=2 / keyint=230 / keyint_min=23 / scenecut=40 / intra_refresh=0 / rc_lookahead=40 / rc=abr / mbtree=1 / bitrate=1290 / ratetol=1.0 / qcomp=0.60 / qpmin=10 / qpmax=69 / qpstep=4 / vbv_maxrate=24000 / vbv_bufsize=24000 / nal_hrd=none / ip_ratio=1.40 / aq=1:1.00
Language : Italian
Default : Yes
Forced : No
DURATION : 01:27:37.344000000
NUMBER_OF_FRAMES : 126050
NUMBER_OF_BYTES : 3223117947
_STATISTICS_WRITING_APP : mkvmerge v7.2.0 ('On Every Street') 64bit built on Sep 13 2014 15:52:10
_STATISTICS_WRITING_DATE_UTC : 2017-08-02 16:19:24
_STATISTICS_TAGS : BPS DURATION NUMBER_OF_FRAMES NUMBER_OF_BYTES

Audio #1
ID : 2
Format : AC-3
Format/Info : Audio Coding 3
Mode extension : CM (complete main)
Codec ID : A_AC3
Duration : 1h 27mn
Bit rate mode : Constant
Bit rate : 192 Kbps
Channel(s) : 2 channels
Channel positions : Front: L R
Sampling rate : 48.0 KHz
Bit depth : 16 bits
Compression mode : Lossy
Delay relative to video : 1mn 5s
Stream size : 120 MiB (12%)
Title : AC3 iTA
Language : Italian
Default : Yes
Forced : Yes
DURATION : 01:27:37.152000000
NUMBER_OF_FRAMES : 164286
NUMBER_OF_BYTES : 294400512
_STATISTICS_WRITING_APP : mkvmerge v7.2.0 ('On Every Street') 64bit built on Sep 13 2014 15:52:10
_STATISTICS_WRITING_DATE_UTC : 2017-08-02 16:19:24
_STATISTICS_TAGS : BPS DURATION NUMBER_OF_FRAMES NUMBER_OF_BYTES

Audio #2
ID : 3
Format : AC-3
Format/Info : Audio Coding 3
Mode extension : CM (complete main)
Codec ID : A_AC3
Duration : 1h 27mn
Bit rate mode : Constant
Bit rate : 192 Kbps
Channel(s) : 2 channels
Channel positions : Front: L R
Sampling rate : 48.0 KHz
Bit depth : 16 bits
Compression mode : Lossy
Delay relative to video : 1mn 5s
Stream size : 120 MiB (12%)
Title : AC3 ENG
Language : English
Default : No
Forced : No
DURATION : 01:27:37.344000000
NUMBER_OF_FRAMES : 164292
NUMBER_OF_BYTES : 294411264
_STATISTICS_WRITING_APP : mkvmerge v7.2.0 ('On Every Street') 64bit built on Sep 13 2014 15:52:10
_STATISTICS_WRITING_DATE_UTC : 2017-08-02 16:19:24
_STATISTICS_TAGS : BPS DURATION NUMBER_OF_FRAMES NUMBER_OF_BYTES

Text #1
ID : 4
Format : ASS
Codec ID : S_TEXT/ASS
Codec ID/Info : Advanced Sub Station Alpha
Compression mode : Lossless
Title : REGULAR iTA
Language : Italian
Default : No
Forced : No
DURATION : 01:26:29.907000000
NUMBER_OF_FRAMES : 2298
NUMBER_OF_BYTES : 97433
_STATISTICS_WRITING_APP : mkvmerge v7.2.0 ('On Every Street') 64bit built on Sep 13 2014 15:52:10
_STATISTICS_WRITING_DATE_UTC : 2017-08-02 16:19:24
_STATISTICS_TAGS : BPS DURATION NUMBER_OF_FRAMES NUMBER_OF_BYTES

Text #2
ID : 5
Format : ASS
Codec ID : S_TEXT/ASS
Codec ID/Info : Advanced Sub Station Alpha
Compression mode : Lossless
Title : REGULAR ENG
Language : Italian
Default : No
Forced : No
DURATION : 01:26:57.600000000
NUMBER_OF_FRAMES : 1452
NUMBER_OF_BYTES : 47794
_STATISTICS_WRITING_APP : mkvmerge v7.2.0 ('On Every Street') 64bit built on Sep 13 2014 15:52:10
_STATISTICS_WRITING_DATE_UTC : 2017-08-02 16:19:24
_STATISTICS_TAGS : BPS DURATION NUMBER_OF_FRAMES NUMBER_OF_BYTES

Menu
00:00:00.000 : :00:00:00.000
00:18:42.371 : :00:18:42.371
00:38:27.305 : :00:38:27.305
00:53:03.180 : :00:53:03.180
01:01:08.665 : :01:01:08.665
01:17:45.286 : :01:17:45.286
01:20:11.682 : :01:20:11.682



[/spoiler]



Files:

Yoga Hosers - Guerriere per sbaglio (2016).H264.ita.eng.sub.ita.eng.iCV-MIRCrew
  • www.icv-crew.org.txt (0.1 KB)
  • Yoga Hosers - Guerriere per sbaglio (2016).H264.ita.eng.sub.ita.eng.iCV-MIRCrew.eng.srt (103.7 KB)
  • Yoga Hosers - Guerriere per sbaglio (2016).H264.ita.eng.sub.ita.eng.iCV-MIRCrew.ita.srt (185.2 KB)
  • Yoga Hosers - Guerriere per sbaglio (2016).H264.ita.eng.sub.ita.eng.iCV-MIRCrew.mkv (1.0 GB)
  • Yoga Hosers - Guerriere per sbaglio (2016).H264.ita.eng.sub.ita.eng.iCV-MIRCrew.srt (0.1 KB)

There are currently no comments. Feel free to leave one :)

Code:

  • udp://tracker.coppersurfer.tk:6969/announce
  • udp://tracker.opentrackr.org:1337/announce
  • udp://tracker.leechers-paradise.org:6969/announce
  • udp://9.rarbg.com:2710/announce
  • udp://9.rarbg.to:2710/announce
  • udp://9.rarbg.me:2710/announce
  • udp://glotorrents.pw:6969/announce
  • udp://tracker.openbittorrent.com:80/announce
  • udp://tracker.pubt.net:2710/announce
  • udp://tracker.ilibr.org:6969/announce
  • udp://tracker.ilibr.org:80/announce
  • udp://zer0day.to:1337/announce
  • udp://tracker.zer0day.to:1337/announce
  • udp://p4p.arenabg.com:1337/announce
  • udp://p4p.arenabg.ch:1337/announce
  • udp://explodie.org:6969/announce
  • udp://eddie4.nl:6969/announce